#TITLE:Deja vu;
#SUBTITLE:Tony;
#ARTIST:SS501;
#TITLETRANSLIT:;
#SUBTITLETRANSLIT:;
#ARTISTTRANSLIT:;
#CREDIT:Tony;
#BANNER:bn.png;
#BACKGROUND:bg.jpg;
#LYRICSPATH:;
#CDTITLE:cdtitle.png;
#MUSIC:Deja vu - SS501.mp3;
#OFFSET:1.540;
#SAMPLESTART:44.200;
#SAMPLELENGTH:12.020;
#SELECTABLE:YES;
#BPMS:0.000=117.000,27.000=234.000,27.563=58.500,27.875=234.000,27.938=117.000,29.500=234.001,31.000=117.000,33.500=234.000,35.000=117.000,37.500=234.000,39.000=117.000,39.500=58.500,39.667=234.000,40.000=117.000,40.500=58.500,40.667=234.000,41.000=117.000,41.500=58.500,41.667=234.000,42.000=117.000,42.500=58.500,42.667=234.000,43.000=117.000,43.500=58.500,43.667=234.000,44.000=117.000,45.500=234.000,47.000=117.000,49.500=234.000,51.000=117.000,53.500=234.000,55.000=117.000,55.500=58.500,55.667=234.000,56.000=117.000,56.500=58.500,56.667=234.000,57.000=117.000,57.500=58.500,57.667=234.000,58.000=117.000,58.500=58.500,58.667=234.000,59.000=117.000,59.500=58.500,59.667=234.000,60.000=117.000,69.500=234.000,71.000=117.000,73.500=234.000,75.000=117.000,85.500=234.000,87.000=117.000,88.000=234.000,88.500=58.500,89.125=234.000,89.750=117.000,90.000=58.500,90.229=234.000,90.750=117.000,98.500=234.000,98.896=58.500,99.125=117.000,99.250=234.000,99.688=58.500,99.875=117.000,100.000=117.000,106.500=234.000,106.896=58.500,107.125=117.000,107.250=234.000,107.688=58.500,107.875=117.000,157.500=234.000,159.000=117.000,161.500=234.000,163.000=117.000,165.500=234.000,167.000=117.000,171.000=234.000,171.563=58.500,171.875=234.000,171.938=117.000,173.500=234.000,175.000=117.000,177.500=234.000,179.000=117.000,181.500=234.000,183.000=117.000,184.000=234.000,185.000=117.000,185.500=234.000,186.500=117.000,187.000=234.000,187.625=58.500,187.938=234.000,188.000=117.000,202.500=234.000,202.896=58.500,203.083=117.000,203.250=234.000,203.729=58.500,204.000=117.000,216.000=234.000,220.000=117.000,224.500=468.000,235.271=58.500,235.563=234.000,236.000=117.000,237.500=234.000,239.000=117.000,241.500=234.000,243.000=117.000,245.500=234.000,247.000=117.000,247.500=58.500,247.667=234.000,248.000=117.000,248.500=58.500,248.667=234.000,249.000=117.000,249.500=58.500,249.667=234.000,250.000=117.000,250.500=58.500,250.667=234.000,251.000=117.000,251.500=58.500,251.667=234.000,252.000=117.000,253.500=234.000,255.000=117.000,257.500=234.000,259.000=117.000,261.500=234.000,263.000=117.000,263.500=58.500,263.667=234.000,264.000=117.000,264.500=58.500,264.667=234.000,265.000=117.000,265.500=58.500,265.667=234.000,266.000=117.000,266.500=58.500,266.667=234.000,267.000=117.000,267.500=58.500,267.667=234.000,268.000=117.000,277.500=234.000,279.000=117.000,281.500=234.000,283.000=117.000,293.500=234.000,295.000=117.000,296.000=58.500,296.188=117.000,297.625=234.000,298.000=58.500,298.188=117.000,298.646=234.000,299.000=117.000,306.500=234.000,306.917=58.500,307.167=117.000,307.250=234.000,307.688=58.500,307.875=117.000,314.500=234.000,314.938=58.500,315.167=117.000,315.250=234.000,315.688=58.500,315.875=117.000,364.000=58.500,376.000=29.250,378.000=58.500,378.750=117.000,379.500=58.500,380.750=117.000,381.500=58.500,382.000=117.000,383.500=234.000,385.000=117.000,390.000=936.000,407.188=-20.010,407.375=936.000;
#STOPS:29.500=0.060
,29.750=0.060
,30.000=0.060
,30.250=0.060
,30.500=0.060
,30.750=0.060
,31.000=0.020
,33.500=0.060
,33.750=0.060
,34.000=0.060
,34.250=0.060
,34.500=0.060
,34.750=0.060
,35.000=0.020
,37.500=0.060
,37.750=0.060
,38.000=0.060
,38.250=0.060
,38.500=0.060
,38.750=0.060
,39.000=0.020
,45.500=0.060
,45.750=0.060
,46.000=0.060
,46.250=0.060
,46.500=0.060
,46.750=0.060
,47.000=0.020
,49.500=0.060
,49.750=0.060
,50.000=0.060
,50.250=0.060
,50.500=0.060
,50.750=0.060
,51.000=0.040
,53.500=0.060
,53.750=0.060
,54.000=0.060
,54.250=0.060
,54.500=0.060
,54.750=0.060
,55.000=0.020
,69.500=0.060
,69.750=0.060
,70.000=0.060
,70.250=0.060
,70.500=0.060
,70.750=0.060
,71.000=0.020
,73.500=0.060
,73.750=0.060
,74.000=0.060
,74.250=0.060
,74.500=0.060
,74.750=0.060
,75.000=0.020
,85.500=0.060
,85.750=0.060
,86.000=0.060
,86.250=0.060
,86.500=0.060
,86.750=0.060
,87.000=0.020
,157.500=0.060
,157.750=0.060
,158.000=0.060
,158.250=0.060
,158.500=0.060
,158.750=0.060
,159.000=0.020
,161.500=0.060
,161.750=0.060
,162.000=0.060
,162.250=0.060
,162.500=0.060
,162.750=0.060
,163.000=0.020
,165.500=0.060
,165.750=0.060
,166.000=0.060
,166.250=0.060
,166.500=0.060
,166.750=0.060
,167.000=0.020
,173.500=0.060
,173.750=0.060
,174.000=0.060
,174.250=0.060
,174.500=0.060
,174.750=0.060
,175.000=0.040
,177.500=0.060
,177.750=0.060
,178.000=0.060
,178.250=0.060
,178.500=0.060
,178.750=0.060
,179.000=0.020
,181.500=0.060
,181.750=0.060
,182.000=0.060
,182.250=0.060
,182.500=0.060
,182.750=0.060
,183.000=0.020
,184.000=0.060
,184.250=0.060
,184.500=0.060
,184.750=0.060
,185.000=0.020
,185.500=0.060
,185.750=0.060
,186.000=0.060
,186.250=0.060
,186.500=0.020
,216.500=0.260
,217.500=0.260
,218.500=0.260
,219.500=0.260
,237.500=0.060
,237.750=0.060
,238.000=0.060
,238.250=0.060
,238.500=0.060
,238.750=0.060
,239.000=0.020
,241.500=0.060
,241.750=0.060
,242.000=0.060
,242.250=0.060
,242.500=0.060
,242.750=0.060
,243.000=0.020
,245.500=0.060
,245.750=0.060
,246.000=0.060
,246.250=0.060
,246.500=0.060
,246.750=0.060
,247.000=0.020
,253.500=0.060
,253.750=0.060
,254.000=0.060
,254.250=0.060
,254.500=0.060
,254.750=0.060
,255.000=0.040
,257.500=0.060
,257.750=0.060
,258.000=0.060
,258.250=0.060
,258.500=0.060
,258.750=0.060
,259.000=0.020
,261.500=0.060
,261.750=0.060
,262.000=0.060
,262.250=0.060
,262.500=0.060
,262.750=0.060
,263.000=0.020
,277.500=0.060
,277.750=0.060
,278.000=0.060
,278.250=0.060
,278.500=0.060
,278.750=0.060
,279.000=0.020
,281.500=0.060
,281.750=0.060
,282.000=0.060
,282.250=0.060
,282.500=0.060
,282.750=0.060
,283.000=0.020
,293.500=0.060
,293.750=0.060
,294.000=0.060
,294.250=0.060
,294.500=0.060
,294.750=0.060
,295.000=0.020
,378.750=0.060
,378.875=0.060
,379.000=0.060
,379.125=0.060
,379.250=0.060
,379.375=0.060
,379.500=0.020
,380.750=0.060
,380.875=0.060
,381.000=0.060
,381.125=0.060
,381.250=0.060
,381.375=0.060
,381.500=0.040
,383.500=0.060
,383.750=0.060
,384.000=0.060
,384.250=0.060
,384.500=0.060
,384.750=0.060
,385.000=0.020
,419.500=0.700
;
#BGCHANGES:3.250=dejavu.avi=1.000=1=0=1,
99999=-nosongbg-=1.000=0=0=0 // don't automatically add -songbackground-
;
// cache tags:
#FIRSTBEAT:4.000;
#LASTBEAT:446.000;
#SONGFILENAME:Songs/SDO pack 3/Deja vu/Deja vu - SS501.sm;
#HASMUSIC:1;
#HASBANNER:1;
#MUSICLENGTH:212.323;
// end cache tags

//---------------dance-single - ----------------
#NOTES:
     dance-single:
     :
     Hard:
     12:
     1.000,1.000,1.000,0.174,0.869,1014.000,387.000,37.000,140.000,155.000:
0000
0000
0000
0000
,
0011
0000
0001
0010
0001
0010
0001
0010
,
1100
0000
0000
0000
0000
0000
0000
0000
1000
0000
0000
0000
0100
0000
0000
0000
1000
0000
0010
0001
0100
0000
0010
1001
0100
0010
0100
0010
0001
0000
0001
0000
,
1110
0000
0100
0010
1100
0000
0010
1000
0010
1000
0100
0010
0101
0000
0100
0000
,
1010
0000
0100
0010
0101
0000
1000
0001
1010
0001
0100
1000
0101
0000
0010
0000
,
1101
0000
0100
0010
1100
0000
0010
0001
1010
0100
0001
0100
1010
0000
0010
0001
,
0110
0110
0110
0110
,
1011
0000
0000
0000
1000
0000
0100
1000
0010
0100
0001
0010
0101
0000
0100
0000
,
1100
0000
0001
0000
0100
0000
0010
0100
1001
0010
1000
0100
1010
0000
1001
0000
,
1101
0000
1000
0000
1100
0000
0001
0010
1001
0100
0010
0100
1001
0000
1001
0000
,
1101
0100
1011
0010
0111
1000
1101
0100
,
1011
0000
0010
0000
1000
0000
0100
1000
0101
0010
0001
0010
1000
0000
0100
0000
,
1110
0000
0100
0000
1100
0000
0010
1000
0101
1000
0010
0100
1010
0000
1001
0000
,
0111
0000
1000
0000
1001
0000
0100
0010
1100
0001
0100
0010
1001
0000
0001
0000
,
1011
0100
1101
0001
1011
0100
1110
1000
,
1101
0000
1000
0000
1100
0000
0010
0000
1001
0000
0001
0000
0001
0010
0100
0000
,
1011
1000
1100
0010
1001
0010
1001
1010
,
1101
0000
0100
0000
1100
0000
0100
1000
0100
0010
0001
0010
1000
0000
1100
0000
,
0111
0000
1000
0000
1100
0000
0010
1000
0101
0010
0100
1000
0010
0000
0100
0000
,
1021
0001
1001
1000
0231
1000
1010
1000
,
0312
0100
1000
0100
0010
0100
1000
0100
0013
0000
1000
0000
1011
0000
1010
0000
,
1101
0000
0010
0000
1010
0000
0101
1010
0101
1010
0101
1010
0100
0000
0010
0000
,
2202
0000
0000
0000
3303
MM0M
0000
0000
0000
0000
0000
0000
0000
0000
0000
0000
1111
0000
0000
0000
0000
0000
0000
0000
1111
0000
0000
0000
0000
0000
0000
0000
,
1020
0100
1100
0100
1001
0001
0101
1000
,
1100
0000
1000
0000
1130
0000
0010
0100
1001
0000
1110
0000
0000
1011
0000
0000
,
1101
1000
1100
0010
1001
0001
1001
0100
,
1001
0000
0010
0000
1001
0000
1000
0010
1100
0000
1101
0000
0000
1001
0000
0000
,
1011
0000
0010
0000
1011
0000
1100
0000
1100
0010
0100
0000
1001
0000
0010
0000
,
1100
0000
0100
0000
1001
0000
0001
0010
0100
0000
1100
0000
1010
0000
0100
0000
,
1101
1000
1100
0010
1001
0001
0110
0010
,
1110
0000
1000
0000
1100
0000
0010
0100
1001
0000
0001
0000
1010
0000
1000
0000
,
0101
0010
1000
0100
1000
0010
0100
0010
0001
0010
0100
0001
1000
0100
0010
0100
,
1011
0100
0010
0001
0100
1000
0010
0100
0010
0001
1000
0100
0001
0010
0100
1001
,
0111
1000
0100
1000
0010
0100
0010
1000
0011
0100
0010
1000
0100
0010
0100
0010
,
1101
0010
0001
0100
0010
0100
1000
0100
0010
0100
0010
0001
0100
0010
0100
1000
,
0111
0001
0010
0100
0010
0001
1100
0100
1010
0001
0100
0010
1100
0001
1000
0100
,
1010
0100
0010
0001
0110
1000
0010
0100
0010
1000
0010
0001
0010
1000
0100
1000
,
1101
0010
0100
0010
1000
0100
0010
0001
0011
0100
0010
1000
0001
0100
0010
0001
,
1011
0000
1000
0000
0100
0000
0100
0000
0010
0000
0010
0000
0001
0000
0001
0000
0010
0000
0010
0000
0100
0000
0100
0000
1000
0010
0100
0001
1000
0010
0100
0001
,
0220
0000
0000
0000
0000
0000
0001
1000
0001
1000
0001
1000
0001
0000
1001
0000
,
1331
0000
0000
0000
2002
0000
0010
0100
0010
0100
0010
0100
0010
0000
3113
0000
,
1011
0000
0000
0000
2020
0000
0100
0001
0100
0001
0100
0001
0100
0000
3131
0000
,
0110
1100
0110
0011
,
1011
0000
0000
0000
0110
0000
1100
0110
0011
0110
1100
0110
0011
0000
1000
0000
,
1100
0000
0000
0000
1010
0000
0011
0110
1100
0110
0011
0110
1100
0000
0100
0000
,
1110
0000
1000
0000
0101
0000
0101
1010
0101
0110
1001
1010
1100
0000
0010
0000
,
1011
1000
0100
1000
1011
0000
1000
1000
1011
1000
1000
0000
0011
0000
0000
0000
,
1110
0000
0000
0000
1010
0000
0001
0000
1100
0000
1100
0000
0001
0110
1001
0000
,
0111
0000
0000
0000
0011
0000
0000
0000
0110
0000
0110
0000
0010
1001
0110
0000
,
1110
0000
0000
0000
1010
0000
0000
0000
0011
0000
0011
0000
0100
0011
1100
0000
,
0011
0000
1000
0000
1100
0000
0000
0000
0001
0000
0110
0000
0000
0110
0000
0000
,
1111
0000
0000
0000
1000
0000
0000
0000
1100
0000
1100
0000
0011
0110
1100
0000
,
1110
0000
1000
0000
1100
0000
0000
0000
1001
0000
0010
0000
0101
1010
0101
0000
,
1010
0000
0000
0000
1100
0000
0000
0000
0011
0000
0011
0000
1100
0110
1100
0000
,
0110
0110
0110
0110
,
1111
0000
0000
0000
,
0100
0010
0001
0000
0020
0000
0000
0000
0000
0000
0000
0000
0000
0000
0000
0000
0000
0000
0000
0000
0000
0000
0000
0000
0000
0000
0000
0000
0000
0000
0000
0000
,
0000
0000
0000
0000
,
0000
0000
0000
0000
0000
0000
0000
1030
,
1111
0000
1000
0000
1100
0000
0010
0010
0101
1000
0010
0001
1110
0000
0010
0000
,
1110
0000
1000
0000
1100
0000
0010
1000
0011
1000
0100
0010
0101
0000
1001
0000
,
1110
0000
1000
0000
1110
0000
0001
0001
0010
0010
0100
0100
1010
0000
0010
0000
,
0111
0100
1110
1000
0111
0100
1110
0001
,
1101
0000
1000
0000
1100
0000
0010
0100
1010
0001
0100
0010
1100
0000
0010
0000
,
1001
0000
1000
0000
1100
0000
0010
1000
0101
1000
0001
0010
1100
0000
0101
0000
,
1011
0000
0100
0000
1100
0000
1000
0010
1100
0001
0010
0100
1010
0000
0010
0000
,
1101
1000
1011
0010
1110
0001
1101
0010
,
1120
1000
0101
0001
1032
0100
1010
1000
,
2013
0001
0010
0020
3100
1000
0131
1010
,
1101
0000
0010
0000
0011
0000
0110
1100
0110
1001
0011
0110
1100
0000
1000
0000
,
1100
0000
0010
0000
0011
0000
1010
0101
1001
0011
1100
0110
1100
0000
1001
0000
,
2001
0010
0011
0100
3102
1000
0110
0100
,
1023
0100
1000
2000
0131
0001
3110
1001
,
0111
0000
1000
0000
1100
0000
0101
1100
0110
0101
1001
1010
0110
0000
1000
0000
,
0110
0000
1111
1111
,
1020
0100
0001
1000
0101
1000
0100
0001
0100
1000
0100
0001
1100
0001
1000
0100
,
1031
0100
0010
0001
1010
0100
0010
1000
0010
0001
1110
0000
0000
1101
0000
0000
,
1110
0001
1000
0010
1100
0001
0010
0100
1001
0100
1010
0100
0011
0100
1000
0010
,
1011
0100
0010
0100
1100
0010
1100
0010
0101
1000
0111
0000
0000
1110
0000
0000
,
1011
0000
1000
0000
1100
0000
0010
0000
0100
0001
1100
0000
0101
0000
0010
0000
,
1100
0000
1000
0000
0110
1000
0101
0010
1100
0000
0010
0000
1001
0000
0010
0000
,
1110
0000
1000
0000
1100
0000
1000
0100
0011
0000
0011
0000
1010
0000
1000
0000
,
1110
0000
1000
0000
1100
0000
0010
0000
1101
0000
0010
0000
1011
0100
0010
0001
,
1110
1000
0100
0001
0101
0010
1000
0100
0011
0100
1000
0100
1010
0001
0100
1000
,
0111
0100
0010
1000
1010
0100
0001
0010
1010
0100
1000
0010
0101
0010
0100
1000
,
1101
0010
0100
0010
1001
0001
0100
0010
1101
1000
0010
0100
1100
0001
0010
0001
,
1011
0100
1000
0100
1100
0010
0100
0010
1011
1000
0100
0010
1100
0010
0001
1010
,
1101
0100
1001
0100
0101
1000
0010
0100
1011
0010
0100
0010
1110
0100
0010
0001
,
1011
0100
0010
1001
1010
0100
0011
0100
1001
0010
0100
1000
0111
1000
0100
0010
,
1101
0000
0010
0000
0110
0000
1000
0000
1110
0000
0001
0000
0100
0000
0010
0000
1011
0000
0101
0000
0010
0000
0001
0000
0011
0000
0100
0010
1000
0001
0100
0010
,
0200
0020
2300
0032
3200
0023
1301
0001
,
1032
1000
1000
1000
0100
0100
0103
0010
1000
0010
0100
0001
1000
0010
0100
0001
,
1000
0000
1000
0000
0100
0000
0010
0000
0001
0000
0001
0000
0010
0000
0100
0000
1000
0000
0100
0000
1000
0000
1000
0000
0100
0000
0010
0000
0001
0000
0001
0010
,
1100
0001
1000
0010
0100
0001
1000
0010
0100
0100
1000
0100
0010
0001
1010
1000
,
1001
0000
0000
0000
0000
0000
1000
0000
0000
0000
0000
0000
0000
0100
0000
0000
0000
0000
0000
0010
0000
0000
0000
0000
0000
0001
0000
0000
0000
0000
0000
0000
0100
0000
0000
0000
0000
0000
0000
0010
0000
0000
0000
0000
0000
0000
2000
0000
0000
0000
0000
0000
0000
0000
0000
0000
0000
0000
0000
0000
0000
0000
0000
0000
0000
0000
3000
0000
0000
0000
0000
0000
1011
0000
0000
0000
0000
0000
0000
0000
0000
0000
0000
0000
1110
0000
0000
0000
0000
0000
0000
0000
0000
0000
0000
0000
0111
0000
0000
0000
0000
0000
0000
0000
0000
0000
0000
0000
0000
0000
0000
0000
0000
0000
0000
0000
0000
0000
0000
0000
0100
0000
0000
0000
0000
0000
0000
0000
0000
0000
0000
0000
0100
0000
0000
0000
0000
0000
1000
0000
0000
0000
0000
0000
0100
0000
0000
0000
0000
0000
0010
0000
0000
0000
0000
0000
0001
0000
0000
0000
0000
0000
0010
0000
0000
0000
0000
0000
0100
0000
0000
0000
0000
0000
0000
0000
0000
0000
0000
0000
0100
0000
0000
0000
0000
0000
0000
0000
0000
0000
0000
0000
,
1100
0000
0000
0000
1000
0000
1000
0010
0100
0001
1000
0010
0100
0000
0100
0000
1110
0000
0000
0000
0000
0000
0000
0000
0100
0000
0000
0000
1010
0000
0001
0000
,
0100
1000
0101
0010
0001
0000
0010
0000
0110
0000
0000
0000
0110
0000
0000
0000
,
0110
0110
0220
0000
,
0000
0000
0000
0000
,
0000
0000
0000
0000
,
0000
0000
0000
0000
,
0000
0000
0000
0000
0000
0000
0000
0000
0000
0000
0000
0000
0000
0000
0000
0000
0000
0000
0000
0000
0000
0000
0000
0000
0000
0000
0000
0000
0000
0000
0000
0000
0000
0000
0000
0000
0000
0000
0000
0000
0000
0000
0000
0000
0000
0000
0000
0000
0000
0000
0000
0000
M33M
0MM0
0MM0
MMMM
MMMM
0MM0
0MM0
MMMM
MMMM
0MM0
0MM0
0MM0
,
MMMM
0MM0
0MM0
0MM0
MMMM
0MM0
0MM0
0MM0
MMMM
0MM0
0MM0
0MM0
MMMM
0MM0
0MM0
0MM0
MMMM
0MM0
0MM0
0MM0
MMMM
0MM0
0MM0
0MM0
MMMM
0MM0
0MM0
0MM0
MMMM
0MM0
0MM0
0MM0
MMMM
0000
0000
0000
0000
0000
0000
0000
0000
0000
0000
0000
0000
0000
0000
0000
0000
0000
0000
0000
0000
0000
0000
0000
0000
0000
0000
0000
0000
0000
0000
0000
,
0000
0000
0000
0000
,
0000
0000
0000
0000
0000
0000
0000
0000
0000
0000
0000
0000
0000
0000
0000
0000
0220
0000
0000
0000
0000
0000
0000
0000
0000
0000
0000
0000
0000
0000
0000
0000
0000
0000
0000
0000
0000
0000
0000
0000
0000
0000
0000
0000
0000
0000
0000
0000
0000
0000
0000
0000
M00M
M00M
0000
0000
0000
0330
0000
0000
0000
0000
0000
0000
,
2002
0000
0000
0000
,
0000
0000
0000
0000
,
0000
0000
0000
0000
,
0000
0000
0000
0000
,
0000
0000
0000
0000
,
3003
0MM0
00M0
0M00
00M0
0M00
M00M
00M0
,
0M00
00M0
M00M
M00M
0MM0
0000
0000
0000
;
